Ticket #348: PLUMI_TRANSCODEDDAEMON_FG.txt

File PLUMI_TRANSCODEDDAEMON_FG.txt, 13.9 KB (added by jimby, 5 years ago)

3.0-beta2 transcodeddaemon log file (foreground)

Line 
1
2
3Log of bin/transcodeddaemon fg
4
5
6
7
8
9root@bsdtv:/usr/home/jimbo#cd /usr/local/Plone/zinstance/
10root@bsdtv:/usr/local/Plone/zinstance#bin/transcodedaemon fg
11Removing stale pidfile /tmp/TranscodeDaemon.pid
122010/02/23 11:05 -0400 [-] Log opened.
132010/02/23 11:05 -0400 [-] twistd 2.5.0 (/usr/local/Plone/Python-2.4/bin/python 2.4.6) starting up
142010/02/23 11:05 -0400 [-] reactor class: <class 'twisted.internet.selectreactor.SelectReactor'>
152010/02/23 11:05 -0400 [-] Loading /usr/local/Plone/zinstance/eggs/collective.transcode.daemon-0.1-py2.4.egg/collective/transcode/daemon/common/transcodedaemon.py...
162010/02/23 11:05 -0400 [-] Initializing
172010/02/23 11:05 -0400 [-] Launched http channel
182010/02/23 11:05 -0400 [-] Launched TranscodeDaemon scheduler thread....
192010/02/23 11:05 -0400 [-] Loaded.
202010/02/23 11:05 -0400 [-] twisted.web2.channel.http.HTTPFactory starting on 8888
212010/02/23 11:05 -0400 [-] Starting factory <twisted.web2.channel.http.HTTPFactory instance at 0x28d1210c>
222010/02/23 11:05 -0400 [-] Scheduler thread running
232010/02/23 11:41 -0400 [-] ['jpeg', 'mp4', 'ogg']
242010/02/23 11:41 -0400 [-] New job
252010/02/23 11:41 -0400 [-] DOWNLOADING http://66.111.2.72:8080/Plone/Members/admin/videos/testb/download/video_file/qemu_0001.avi
262010/02/23 11:41 -0400 [-] RUNNING: scripts/getThumb /tmp/tmpy8kgwV.avi transcoded/http/66.111.2.72/8080/Plone/Members/admin/videos/testb/download/video_file/qemu_0001.avi/jpeg/qemu_0001.jpg
27scripts/getThumb: not found
282010/02/23 11:41 -0400 [-] Transcoder returned 32512 {'path': 'transcoded/http/66.111.2.72/8080/Plone/Members/admin/videos/testb/download/video_file/qemu_0001.avi/jpeg/qemu_0001.jpg', 'type': 'image/jpeg'}
292010/02/23 11:41 -0400 [-] New job
302010/02/23 11:41 -0400 [-] /usr/local/Plone/zinstance/eggs/zope.app.twisted-3.5.0-py2.4.egg/twisted/internet/defer.py:259: exceptions.DeprecationWarning: Don't pass strings (like 'FAIL 32512') to failure.Failure (replacing with a DefaultException).
312010/02/23 11:41 -0400 [-] DOWNLOADING http://66.111.2.72:8080/Plone/Members/admin/videos/testb/download/video_file/qemu_0001.avi
322010/02/23 11:41 -0400 [-] called back plone
332010/02/23 11:41 -0400 [-] callbackURL = http://admin:admin@66.111.2.72:8080/Plone/Members/admin/videos/testb/@@streaming_RPC
342010/02/23 11:41 -0400 [-] callback return for profile jpeg is [Failure instance: Traceback (failure with no frames): twisted.python.failure.DefaultException: FAIL 32512
352010/02/23 11:41 -0400 [-] ]
362010/02/23 11:41 -0400 [-] RUNNING: scripts/transcodeMp4 /tmp/tmpJScvbn.avi transcoded/http/66.111.2.72/8080/Plone/Members/admin/videos/testb/download/video_file/qemu_0001.avi/mp4/qemu_0001.mp4
37scripts/transcodeMp4: not found
382010/02/23 11:41 -0400 [-] Transcoder returned 32512 {'path': 'transcoded/http/66.111.2.72/8080/Plone/Members/admin/videos/testb/download/video_file/qemu_0001.avi/mp4/qemu_0001.mp4', 'type': 'video/mp4'}
392010/02/23 11:41 -0400 [-] New job
402010/02/23 11:41 -0400 [-] DOWNLOADING http://66.111.2.72:8080/Plone/Members/admin/videos/testb/download/video_file/qemu_0001.avi
412010/02/23 11:41 -0400 [-]  called back plone
422010/02/23 11:41 -0400 [-] callbackURL = http://admin:admin@66.111.2.72:8080/Plone/Members/admin/videos/testb/@@streaming_RPC
432010/02/23 11:41 -0400 [-] callback return for profile mp4 is [Failure instance: Traceback (failure with no frames): twisted.python.failure.DefaultException: FAIL 32512
442010/02/23 11:41 -0400 [-] ]
452010/02/23 11:41 -0400 [-] RUNNING: scripts/transcodeTheora /tmp/tmpAS70oW.avi transcoded/http/66.111.2.72/8080/Plone/Members/admin/videos/testb/download/video_file/qemu_0001.avi/ogg/qemu_0001.ogv
46scripts/transcodeTheora: not found
472010/02/23 11:41 -0400 [-] Transcoder returned 32512 {'path': 'transcoded/http/66.111.2.72/8080/Plone/Members/admin/videos/testb/download/video_file/qemu_0001.avi/ogg/qemu_0001.ogv', 'type': 'video/ogg'}
482010/02/23 11:41 -0400 [-] called back plone
492010/02/23 11:41 -0400 [-] callbackURL = http://admin:admin@66.111.2.72:8080/Plone/Members/admin/videos/testb/@@streaming_RPC
502010/02/23 11:41 -0400 [-] callback return for profile ogg is [Failure instance: Traceback (failure with no frames): twisted.python.failure.DefaultException: FAIL 32512
512010/02/23 11:41 -0400 [-] ]
52^\Quit: 3 (core dumped)
53root@bsdtv:/usr/local/Plone/zinstance#
54root@bsdtv:/usr/local/Plone/zinstance#
55
56
57#ABOVE TESTS HAD /bin/bash.  BELOW TESTS have /bin/sh
58
59
60
61
62root@bsdtv:/usr/local/Plone/zinstance#
63root@bsdtv:/usr/local/Plone/zinstance#
64root@bsdtv:/usr/local/Plone/zinstance#bin/transcodedaemon fg
65Removing stale pidfile /tmp/TranscodeDaemon.pid
662010/02/23 11:46 -0400 [-] Log opened.
672010/02/23 11:46 -0400 [-] twistd 2.5.0 (/usr/local/Plone/Python-2.4/bin/python 2.4.6) starting up
682010/02/23 11:46 -0400 [-] reactor class: <class 'twisted.internet.selectreactor.SelectReactor'>
692010/02/23 11:46 -0400 [-] Loading /usr/local/Plone/zinstance/eggs/collective.transcode.daemon-0.1-py2.4.egg/collective/transcode/daemon/common/transcodedaemon.py...
702010/02/23 11:46 -0400 [-] Initializing
712010/02/23 11:46 -0400 [-] Launched http channel
722010/02/23 11:46 -0400 [-] Launched TranscodeDaemon scheduler thread....
732010/02/23 11:46 -0400 [-] Loaded.
742010/02/23 11:46 -0400 [-] twisted.web2.channel.http.HTTPFactory starting on 8888
752010/02/23 11:46 -0400 [-] Starting factory <twisted.web2.channel.http.HTTPFactory instance at 0x28d1210c>
762010/02/23 11:46 -0400 [-] Scheduler thread running
77
78
79#Login as admin
80
81
82
83# testC 'save' clicked here
84
85
862010/02/23 11:55 -0400 [-] ['jpeg', 'mp4', 'ogg']
872010/02/23 11:56 -0400 [-] New job
882010/02/23 11:56 -0400 [-] DOWNLOADING http://66.111.2.72:8080/Plone/Members/admin/videos/testc/download/video_file/qemu_0001.avi
892010/02/23 11:56 -0400 [-] RUNNING: scripts/getThumb /tmp/tmp3qQLYl.avi transcoded/http/66.111.2.72/8080/Plone/Members/admin/videos/testc/download/video_file/qemu_0001.avi/jpeg/qemu_0001.jpg
90FFmpeg version 0.5, Copyright (c) 2000-2009 Fabrice Bellard, et al.
91  configuration: --prefix=/usr/local --mandir=/usr/local/man --enable-shared --enable-gpl --enable-swscale --enable-postproc --enable-avfilter --enable-avfilter-lavf --enable-pthreads --enable-memalign-hack --cc=cc --extra-cflags=-I/usr/local/include/vorbis -I/usr/local/include --extra-ldflags=-L/usr/local/lib  --extra-libs=-pthread --disable-debug --disable-sse --disable-mmx --disable-libamr-nb --disable-libamr-wb --disable-libdirac --disable-libfaac --enable-libfaad --enable-libfaadbin --disable-libgsm --disable-vhook --enable-ipv6 --disable-libmp3lame --disable-libopenjpeg --enable-libschroedinger --disable-ffplay --disable-libspeex --enable-libtheora --enable-libvorbis --disable-x11grab --enable-libx264 --enable-libxvid
92  libavutil     49.15. 0 / 49.15. 0
93  libavcodec    52.20. 0 / 52.20. 0
94  libavformat   52.31. 0 / 52.31. 0
95  libavdevice   52. 1. 0 / 52. 1. 0
96  libavfilter    0. 4. 0 /  0. 4. 0
97  libswscale     0. 7. 1 /  0. 7. 1
98  libpostproc   51. 2. 0 / 51. 2. 0
99  built on Feb 11 2010 03:20:56, gcc: 4.2.1 20070719  [FreeBSD]
100Input #0, avi, from '/tmp/tmp3qQLYl.avi':
101  Duration: 00:04:24.10, start: 0.000000, bitrate: 634 kb/s
102    Stream #0.0: Video: mpeg4, yuv420p, 1024x768 [PAR 1:1 DAR 4:3], 30 tbr, 30 tbn, 30 tbc
103Output #0, image2, to 'transcoded/http/66.111.2.72/8080/Plone/Members/admin/videos/testc/download/video_file/qemu_0001.avi/jpeg/qemu_0001.jpg':
104    Stream #0.0: Video: mjpeg, yuvj420p, 1024x768 [PAR 1:1 DAR 4:3], q=2-31, 200 kb/s, 90k tbn, 30 tbc
105Stream mapping:
106  Stream #0.0 -> #0.0
107Press [q] to stop encoding
108frame=    1 fps=  0 q=6.4 Lsize=      -0kB time=0.03 bitrate=  -5.3kbits/s
109video:105kB audio:0kB global headers:0kB muxing overhead -100.020384%
1102010/02/23 11:56 -0400 [-] Transcoder returned 0 {'path': 'transcoded/http/66.111.2.72/8080/Plone/Members/admin/videos/testc/download/video_file/qemu_0001.avi/jpeg/qemu_0001.jpg', 'type': 'image/jpeg'}
1112010/02/23 11:56 -0400 [-] transcoded/http/66.111.2.72/8080/Plone/Members/admin/videos/testc/download/video_file/qemu_0001.avi/jpeg/qemu_0001.jpg
1122010/02/23 11:56 -0400 [-] New job
1132010/02/23 11:56 -0400 [-] DOWNLOADING http://66.111.2.72:8080/Plone/Members/admin/videos/testc/download/video_file/qemu_0001.avi
1142010/02/23 11:56 -0400 [-]  called back plone
1152010/02/23 11:56 -0400 [-] callbackURL = http://admin:admin@66.111.2.72:8080/Plone/Members/admin/videos/testc/@@streaming_RPC
1162010/02/23 11:56 -0400 [-] callback return for profile jpeg is SUCCESS transcoded/http/66.111.2.72/8080/Plone/Members/admin/videos/testc/download/video_file/qemu_0001.avi/jpeg/qemu_0001.jpg
1172010/02/23 11:56 -0400 [-] RUNNING: scripts/transcodeMp4 /tmp/tmpGIfy-I.avi transcoded/http/66.111.2.72/8080/Plone/Members/admin/videos/testc/download/video_file/qemu_0001.avi/mp4/qemu_0001.mp4
118FFmpeg version 0.5, Copyright (c) 2000-2009 Fabrice Bellard, et al.
119  configuration: --prefix=/usr/local --mandir=/usr/local/man --enable-shared --enable-gpl --enable-swscale --enable-postproc --enable-avfilter --enable-avfilter-lavf --enable-pthreads --enable-memalign-hack --cc=cc --extra-cflags=-I/usr/local/include/vorbis -I/usr/local/include --extra-ldflags=-L/usr/local/lib  --extra-libs=-pthread --disable-debug --disable-sse --disable-mmx --disable-libamr-nb --disable-libamr-wb --disable-libdirac --disable-libfaac --enable-libfaad --enable-libfaadbin --disable-libgsm --disable-vhook --enable-ipv6 --disable-libmp3lame --disable-libopenjpeg --enable-libschroedinger --disable-ffplay --disable-libspeex --enable-libtheora --enable-libvorbis --disable-x11grab --enable-libx264 --enable-libxvid
120  libavutil     49.15. 0 / 49.15. 0
121  libavcodec    52.20. 0 / 52.20. 0
122  libavformat   52.31. 0 / 52.31. 0
123  libavdevice   52. 1. 0 / 52. 1. 0
124  libavfilter    0. 4. 0 /  0. 4. 0
125  libswscale     0. 7. 1 /  0. 7. 1
126  libpostproc   51. 2. 0 / 51. 2. 0
127  built on Feb 11 2010 03:20:56, gcc: 4.2.1 20070719  [FreeBSD]
128
129
130
131Input #0, avi, from '/tmp/tmpGIfy-I.avi':
132  Duration: 00:04:24.10, start: 0.000000, bitrate: 634 kb/s
133    Stream #0.0: Video: mpeg4, yuv420p, 1024x768 [PAR 1:1 DAR 4:3], 30 tbr, 30 tbn, 30 tbc
134Output #0, mp4, to 'transcoded/http/66.111.2.72/8080/Plone/Members/admin/videos/testc/download/video_file/qemu_0001.avi/mp4/qemu_0001.mp4':
135    Stream #0.0: Video: libx264, yuv420p, 640x480 [PAR 1:1 DAR 4:3], q=10-51, 200 kb/s, 90k tbn, 50 tbc
136Stream mapping:
137  Stream #0.0 -> #0.0
138[libx264 @ 0x29707c10]using SAR=1/1
139[libx264 @ 0x29707c10]using cpu capabilities: MMX2 SSE2 Cache64
140[libx264 @ 0x29707c10]profile High, level 3.1
141Press [q] to stop encoding
142frame= 7735 fps=  9 q=13996625.0 Lsize=    4587kB time=264.02 bitrate= 142.3kbits/s     s
143video:4434kB audio:0kB global headers:1kB muxing overhead 3.440718%
144[libx264 @ 0x29707c10]slice I:31    Avg QP:12.56  size: 42898
145[libx264 @ 0x29707c10]slice P:5230  Avg QP:14.10  size:   545
146[libx264 @ 0x29707c10]slice B:2474  Avg QP:13.85  size:   144
147[libx264 @ 0x29707c10]consecutive B-frames: 50.6% 18.5% 10.5%  8.1% 12.2%
148[libx264 @ 0x29707c10]mb I  I16..4: 57.4%  8.4% 34.2%
149[libx264 @ 0x29707c10]mb P  I16..4:  0.2%  0.0%  0.1%  P16..4: 13.1%  0.1%  0.2%  0.0%  0.0%    skip:86.3%
150[libx264 @ 0x29707c10]mb B  I16..4:  0.1%  0.0%  0.0%  B16..8:  2.4%  0.0%  0.0%  direct: 0.0%  skip:97.4%  L0:37.0% L1:62.2% BI: 0.8%
151[libx264 @ 0x29707c10]8x8 transform  intra:6.6%  inter:82.9%
152[libx264 @ 0x29707c10]direct mvs  spatial:99.9%  temporal:0.1%
153[libx264 @ 0x29707c10]ref P L0  98.2%  0.9%  0.6%  0.3%
154[libx264 @ 0x29707c10]ref B L0  59.2% 23.1% 17.7%
155[libx264 @ 0x29707c10]ref B L1  97.5%  2.5%
156[libx264 @ 0x29707c10]SSIM Mean Y:0.9988191
157[libx264 @ 0x29707c10]kb/s:234.7
158 patching stco atom...
159 writing ftyp atom...
160 writing moov atom...
161 copying rest of file...
1622010/02/23 12:10 -0400 [-] Transcoder returned 0 {'path': 'transcoded/http/66.111.2.72/8080/Plone/Members/admin/videos/testc/download/video_file/qemu_0001.avi/mp4/qemu_0001.mp4', 'type': 'video/mp4'}
1632010/02/23 12:10 -0400 [-] transcoded/http/66.111.2.72/8080/Plone/Members/admin/videos/testc/download/video_file/qemu_0001.avi/mp4/qemu_0001.mp4
1642010/02/23 12:10 -0400 [-] New job
1652010/02/23 12:10 -0400 [-] DOWNLOADING http://66.111.2.72:8080/Plone/Members/admin/videos/testc/download/video_file/qemu_0001.avi
1662010/02/23 12:10 -0400 [-]  called back plone
1672010/02/23 12:10 -0400 [-] callbackURL = http://admin:admin@66.111.2.72:8080/Plone/Members/admin/videos/testc/@@streaming_RPC
1682010/02/23 12:10 -0400 [-] callback return for profile mp4 is SUCCESS transcoded/http/66.111.2.72/8080/Plone/Members/admin/videos/testc/download/video_file/qemu_0001.avi/mp4/qemu_0001.mp4
1692010/02/23 12:10 -0400 [-] RUNNING: scripts/transcodeTheora /tmp/tmpH96E_2.avi transcoded/http/66.111.2.72/8080/Plone/Members/admin/videos/testc/download/video_file/qemu_0001.avi/ogg/qemu_0001.ogv
170Input #0, avi, from '/tmp/tmpH96E_2.avi':
171  Duration: 00:04:24.10, start: 0.000000, bitrate: 634 kb/s
172    Stream #0.0: Video: mpeg4, yuv420p, 1024x768 [PAR 1:1 DAR 4:3], 30 tbr, 30 tbn, 30 tbc
173  Pixel Aspect Ratio: 1.00/1   Frame Aspect Ratio: 1.33/1
174  Resize: 1024x768 => 400x300
175      0:04:17.83 audio: 0kbps video: 88kbps, time remaining: 00:00:10
1762010/02/23 12:18 -0400 [-] Transcoder returned 0 {'path': 'transcoded/http/66.111.2.72/8080/Plone/Members/admin/videos/testc/download/video_file/qemu_0001.avi/ogg/qemu_0001.ogv', 'type': 'video/ogg'}
1772010/02/23 12:18 -0400 [-] transcoded/http/66.111.2.72/8080/Plone/Members/admin/videos/testc/download/video_file/qemu_0001.avi/ogg/qemu_0001.ogv
1782010/02/23 12:18 -0400 [-] called back plone
1792010/02/23 12:18 -0400 [-] callbackURL = http://admin:admin@66.111.2.72:8080/Plone/Members/admin/videos/testc/@@streaming_RPC
1802010/02/23 12:18 -0400 [-] callback return for profile ogg is SUCCESS transcoded/http/66.111.2.72/8080/Plone/Members/admin/videos/testc/download/video_file/qemu_0001.avi/ogg/qemu_0001.ogv
181
182
183
184
185#
186
187# closing browser and shutting down
188^\Quit: 3 (core dumped)
189root@bsdtv:/usr/local/Plone/zinstance#
190root@bsdtv:/usr/local/Plone/zinstance#
191root@bsdtv:/usr/local/Plone/zinstance#rm *.core
192root@bsdtv:/usr/local/Plone/zinstance#
193root@bsdtv:/usr/local/Plone/zinstance#